<?xml version="1.0" standalone="no"?>
<!DOCTYPE svg PUBLIC "-//W3C//DTD SVG 1.1//EN" "http://www.w3.org/Graphics/SVG/1.1/DTD/svg11.dtd" >
<svg xmlns="http://www.w3.org/2000/svg">
<metadata>Generated by IcoMoon</metadata>
<defs>
<font id="icomoon" horiz-adv-x="1024">
<font-face units-per-em="1024" ascent="960" descent="-64" />
<missing-glyph horiz-adv-x="1024" />
<glyph unicode="&#x20;" horiz-adv-x="512" d="" />
<glyph unicode="&#xe900;" glyph-name="twitter" d="M324.362 910.686l222.686-291.426 256.476 291.426h160.832l-342.328-392.004 401.972-533.372h-316.282c0 0-246.296 322.788-246.296 322.788s-0.524-0.606-1.572-1.814l-2.796-3.23c-20.37-23.538-112.048-129.452-275.026-317.744h-160.704l363.912 420.89-385.238 504.492h324.356zM274.552 823.462h-91.574l569.742-742.442h83.312c-356.774 471.76-543.524 718.696-560.246 740.81l-1.096 1.45z" />
<glyph unicode="&#xe901;" glyph-name="youtube" d="M1002.608 694.47c-11.774 44.060-46.47 78.754-90.53 90.53-79.864 21.4-400.077 21.4-400.077 21.4s-320.215 0-400.079-21.4c-44.052-11.776-78.754-46.47-90.528-90.53-21.394-79.856-21.394-246.476-21.394-246.476s0-166.616 21.394-246.464c11.774-44.060 46.476-78.764 90.528-90.538 79.864-21.392 400.079-21.392 400.079-21.392s320.213 0 400.077 21.392c44.060 11.774 78.756 46.478 90.53 90.538 21.392 79.848 21.392 246.464 21.392 246.464s0 166.62-21.392 246.476zM409.595 294.391v307.207l266.039-153.604-266.039-153.602z" />
<glyph unicode="&#xe902;" glyph-name="facebook" d="M731.818 628.424h-162.047v106.279c0 39.913 26.453 49.218 45.085 49.218 18.589 0 114.355 0 114.355 0v175.464l-157.49 0.615c-174.828 0-214.614-130.867-214.614-214.614v-116.962h-101.107v-180.806h101.107c0-232.037 0-511.618 0-511.618h212.664c0 0 0 282.337 0 511.618h143.5l18.547 180.806z" />
<glyph unicode="&#xe903;" glyph-name="instagram" d="M941.419 875.355c53.677-53.677 82.581-128 82.581-214.71v-425.29c0-88.774-28.903-165.161-84.645-218.839-53.677-51.613-128-80.516-216.774-80.516h-421.161c-84.645 0-158.968 26.839-214.71 80.516-57.806 55.742-86.71 132.129-86.71 220.903v423.226c0 179.613 119.742 299.355 299.355 299.355h425.29c86.71 0 163.097-28.903 216.774-84.645zM933.161 235.355v425.29c0 59.871-20.645 111.484-55.742 148.645-37.161 37.161-88.774 55.742-150.71 55.742h-425.29c-61.935 0-115.613-18.581-150.71-53.677-37.161-37.161-55.742-88.774-55.742-150.71v-423.226c0-64 18.581-115.613 55.742-152.774 37.161-35.097 88.774-53.677 150.71-53.677h421.161c61.935 0 113.548 18.581 150.71 53.677s59.871 86.71 59.871 150.71zM512 714.323c144.516 0 264.258-119.742 264.258-264.258s-117.677-264.258-264.258-264.258c-146.581 0-264.258 117.677-264.258 264.258s119.742 264.258 264.258 264.258zM786.581 660.645c-33.066 0-59.871 26.805-59.871 59.871s26.805 59.871 59.871 59.871c33.066 0 59.871-26.805 59.871-59.871s-26.805-59.871-59.871-59.871zM512 280.774c92.903 0 169.29 76.387 169.29 169.29s-76.387 169.29-169.29 169.29c-92.903 0-169.29-76.387-169.29-169.29s76.387-169.29 169.29-169.29z" />
<glyph unicode="&#xe904;" glyph-name="triangle" d="M984.062 421.374l-678.311-452.207c-14.705-9.803-34.573-5.83-44.376 8.875-3.504 5.257-5.374 11.433-5.374 17.75v904.415c0 17.673 14.327 32 32 32 6.318 0 12.494-1.87 17.75-5.374l678.311-452.207c14.705-9.803 18.678-29.671 8.875-44.376-2.344-3.515-5.36-6.532-8.875-8.875z" />
<glyph unicode="&#xe905;" glyph-name="menu" d="M128 789.333h768c23.564 0 42.667-19.103 42.667-42.667s-19.103-42.667-42.667-42.667h-768c-23.564 0-42.667 19.103-42.667 42.667s19.103 42.667 42.667 42.667zM128 490.667h768c23.564 0 42.667-19.103 42.667-42.667s-19.103-42.667-42.667-42.667h-768c-23.564 0-42.667 19.103-42.667 42.667s19.103 42.667 42.667 42.667zM128 192h768c23.564 0 42.667-19.103 42.667-42.667s-19.103-42.667-42.667-42.667h-768c-23.564 0-42.667 19.103-42.667 42.667s19.103 42.667 42.667 42.667z" />
<glyph unicode="&#xe906;" glyph-name="error" d="M512-64c-282.77 0-512 229.23-512 512s229.23 512 512 512c282.77 0 512-229.23 512-512s-229.23-512-512-512zM512 499.72l-129.3 129.3c-14.282 14.282-37.438 14.282-51.72 0s-14.282-37.438 0-51.72l129.3-129.3-129.3-129.3c-14.282-14.282-14.282-37.438 0-51.72s37.438-14.282 51.72 0l129.3 129.3 129.3-129.3c14.282-14.282 37.438-14.282 51.72 0s14.282 37.438 0 51.72l-129.3 129.3 129.3 129.3c14.282 14.282 14.282 37.438 0 51.72s-37.438 14.282-51.72 0l-129.3-129.3z" />
<glyph unicode="&#xe907;" glyph-name="check" d="M512-64c-282.77 0-512 229.23-512 512s229.23 512 512 512c282.77 0 512-229.23 512-512s-229.23-512-512-512zM718.879 624.582l-284.459-284.459-129.3 129.3c-14.282 14.282-37.438 14.282-51.72 0s-14.282-37.438 0-51.72l129.3-129.3c28.564-28.564 74.876-28.564 103.44 0l284.459 284.459c14.282 14.282 14.282 37.438 0 51.72s-37.438 14.282-51.72 0z" />
<glyph unicode="&#xe908;" glyph-name="arrow-up" d="M511.372 599.738l-331.869-331.869c-16.662-16.662-43.677-16.662-60.34 0s-16.662 43.677 0 60.34l346.954 346.954c24.994 24.994 65.516 24.994 90.51 0l346.954-346.954c16.662-16.662 16.662-43.677 0-60.34s-43.677-16.662-60.34 0l-331.869 331.869z" />
<glyph unicode="&#xe909;" glyph-name="arrow-down" d="M512.628 296.262l331.869 331.869c16.662 16.662 43.677 16.662 60.34 0s16.662-43.677 0-60.34l-346.954-346.954c-24.994-24.994-65.516-24.994-90.51 0l-346.954 346.954c-16.662 16.662-16.662 43.677 0 60.34s43.677 16.662 60.34 0l331.869-331.869z" />
<glyph unicode="&#xe90a;" glyph-name="arrow-left" d="M360.262 448.628l331.869 331.869c16.662 16.662 16.662 43.677 0 60.34s-43.677 16.662-60.34 0l-346.954-346.954c-24.994-24.994-24.994-65.516 0-90.51l346.954-346.954c16.662-16.662 43.677-16.662 60.34 0s16.662 43.677 0 60.34l-331.869 331.869z" />
<glyph unicode="&#xe90b;" glyph-name="arrow-right" d="M663.738 448.628l-331.869 331.869c-16.662 16.662-16.662 43.677 0 60.34s43.677 16.662 60.34 0l346.954-346.954c24.994-24.994 24.994-65.516 0-90.51l-346.954-346.954c-16.662-16.662-43.677-16.662-60.34 0s-16.662 43.677 0 60.34l331.869 331.869z" />
<glyph unicode="&#xe90c;" glyph-name="close" d="M566.535 453.804l301.699-301.699c16.662-16.662 16.662-43.677 0-60.34s-43.677-16.662-60.34 0l-301.699 301.699-301.699-301.699c-16.662-16.662-43.677-16.662-60.34 0s-16.662 43.677 0 60.34l301.699 301.699-301.699 301.699c-16.662 16.662-16.662 43.677 0 60.34s43.677 16.662 60.34 0l301.699-301.699 301.699 301.699c16.662 16.662 43.677 16.662 60.34 0s16.662-43.677 0-60.34l-301.699-301.699z" />
<glyph unicode="&#xe90d;" glyph-name="local" d="M307.098 559.343c0 114.825 91.75 207.906 204.937 207.906s204.937-93.082 204.937-207.906c0-114.825-91.75-207.906-204.937-207.906s-204.937 93.082-204.937 207.906zM551.079-17.713l212.109 251.014c49.63 56.525 106.325 127.932 131.755 182.955s26.249 94.14 26.658 143.087c-8.055 223.607-189.030 400.657-409.6 400.657s-401.545-177.050-409.6-400.657c0.41-48.947 1.229-88.064 26.658-143.087s82.125-126.43 131.755-182.955l212.046-251.009c18.248-21.601 50.552-24.319 72.153-6.071 2.188 1.849 4.218 3.878 6.067 6.066z" />
<glyph unicode="&#xe90e;" glyph-name="pinterest" d="M450.86 283.643c-17.476-88.614-36.967-160.527-58.473-215.745-21.511-55.215-53.775-99.177-96.788-131.898-4.035 50.442-6.383 91.345-7.057 122.696-0.674 31.357 3.022 68.848 11.087 112.477 8.071 43.621 15.459 79.070 22.179 106.337 6.723 27.264 15.462 61.005 26.217 101.225 10.75 40.22 18.821 73.961 24.193 101.228-16.128 35.441-22.514 74.978-19.152 118.607 3.361 43.623 19.489 79.751 48.391 108.385 28.902 28.626 62.171 35.444 99.81 20.449 26.883-10.908 41.677-31.015 44.362-60.327 2.688-29.312-1.679-61.691-13.106-97.135-11.424-35.449-22.179-70.552-32.261-105.318s-11.427-65.439-4.035-92.020c7.397-26.586 28.565-43.287 63.519-50.103 45.704-9.546 86.37 3.406 121.992 38.853 35.622 35.444 60.489 80.093 74.606 133.943 14.111 53.853 17.81 109.405 11.087 166.667-6.72 57.26-24.867 100.883-54.443 130.879-41.671 43.623-92.416 67.482-152.237 71.571-59.821 4.093-114.595-7.157-164.335-33.738-49.734-26.586-90.065-66.467-120.981-119.635-30.919-53.17-41.674-111.11-32.261-173.819 2.685-15 10.082-32.718 22.179-53.17 12.095-20.449 19.152-36.469 21.171-48.058 2.016-11.591-3.698-34.421-17.141-68.509-98.131 23.177-145.18 101.567-141.144 235.176 2.688 94.068 37.973 173.819 105.859 239.258s146.188 103.614 234.906 114.517c110.231 12.269 207.694-7.154 292.381-58.282 84.688-51.122 133.079-125.761 145.18-223.921 17.476-119.971-4.707-228.011-66.544-324.127-61.834-96.113-146.522-140.081-254.063-131.904-14.788 1.367-28.902 4.434-42.345 9.205-13.443 4.768-23.525 9.202-30.247 13.292-6.72 4.093-17.139 11.25-31.25 21.474-14.117 10.224-24.535 17.382-31.256 21.469z" />
<glyph unicode="&#xe90f;" glyph-name="linkedin" d="M257.041 1.821h-191.22v637.399h191.22v-637.399zM958.179 1.821h-191.22v340.498c0 88.727-31.616 132.898-94.271 132.898-49.653 0-81.142-24.731-96.948-74.257 0-80.439 0-399.14 0-399.14h-191.22c0 0 2.55 573.658 0 637.399h150.937l11.664-127.479h3.952c39.201 63.741 101.856 106.956 187.778 106.956 65.332 0 118.174-18.166 158.521-63.803 40.603-45.701 60.808-107.019 60.808-193.132v-359.939zM260.228 798.569c0-52.804-44.234-95.61-98.796-95.61s-98.796 42.806-98.796 95.61c0 52.804 44.234 95.61 98.796 95.61s98.796-42.806 98.796-95.61z" />
<glyph unicode="&#xe910;" glyph-name="news" d="M704 960c70.692 0 128-57.308 128-128v-128h64c70.692 0 128-57.308 128-128v-512c0-70.692-57.308-128-128-128h-768c-70.692 0-128 57.308-128 128v768c0 70.692 57.308 128 128 128h576zM896 640h-64v-640h64c34.084 0 61.945 26.644 63.891 60.24l0.109 3.76v512c0 34.084-26.644 61.945-60.24 63.891l-3.76 0.109zM704 896h-576c-34.084 0-61.945-26.644-63.891-60.24l-0.109-3.76v-768c0-34.084 26.644-61.945 60.24-63.891l3.76-0.109h640v832c0 34.084-26.644 61.945-60.24 63.891l-3.76 0.109zM640 170.667c17.673 0 32-14.327 32-32s-14.327-32-32-32h-448c-17.673 0-32 14.327-32 32s14.327 32 32 32h448zM640 298.667c17.673 0 32-14.327 32-32s-14.327-32-32-32h-448c-17.673 0-32 14.327-32 32s14.327 32 32 32h448zM640 426.667c17.673 0 32-14.327 32-32s-14.327-32-32-32h-448c-17.673 0-32 14.327-32 32s14.327 32 32 32h448zM196.491 746.667c7.001 0 13.495-3.429 17.457-9.070l1.363-2.217 44.371-83.126v74.922c0 10.765 8.727 19.492 19.492 19.492 9.996 0 18.235-7.525 19.361-17.219l0.131-2.273v-131.682c0-9.996-7.525-18.235-17.219-19.361l-2.273-0.131h-6.709c-6.995 0-13.486 3.423-17.448 9.058l-1.364 2.214-44.094 82.443v-74.269c0-10.74-8.706-19.447-19.447-19.447-9.973 0-18.192 7.507-19.316 17.179l-0.131 2.268v131.911c0 9.844 7.366 17.968 16.887 19.159l2.422 0.15h6.515zM448.836 746.667c10.062 0 18.219-8.157 18.219-18.219 0-9.288-6.95-16.953-15.934-18.077l-2.285-0.142h-60.486v-27.125h55.605c9.612 0 17.404-7.792 17.404-17.404 0-8.873-6.639-16.195-15.221-17.269l-2.183-0.136h-55.605v-33.644h61.659c10.673 0 19.325-8.652 19.325-19.325 0-9.911-7.46-18.079-17.071-19.195l-2.254-0.13h-87.342c-10.94 0-19.957 8.236-21.19 18.845l-0.144 2.488v128c0 10.94 8.236 19.957 18.845 21.19l2.488 0.144h86.169zM512.609 746.667c9.731 0 18.115-6.561 20.596-15.768l0.494-2.354 11.758-77.223 16.813 75.733c2.544 11.459 12.706 19.612 24.444 19.612 10.837 0 20.334-6.944 23.74-17.025l0.722-2.583 16.888-75.737 11.758 77.223c1.465 9.62 9.213 16.921 18.688 17.988l2.402 0.134h1.712c0.983 0 1.965-0.086 2.933-0.258 8.376-1.485 14.195-8.936 13.859-17.206l-0.247-2.272-23.125-130.458c-2.099-11.843-12.393-20.473-24.421-20.473-11.218 0-21.051 7.183-24.587 17.616l-0.75 2.674-19.525 87.163-19.448-87.159c-2.646-11.859-13.169-20.293-25.32-20.293-11.173 0-20.854 7.435-23.877 17.98l-0.577 2.487-23.325 130.378c-0.175 0.98-0.263 1.973-0.263 2.968 0 8.532 6.34 15.584 14.567 16.7l2.287 0.154h1.806z" />
<glyph unicode="&#xe911;" glyph-name="events" horiz-adv-x="896" d="M768 960c70.692 0 128-57.308 128-128v-896l-170.667 104.776-96-104.776-77.445 104.776-103.888-104.776-95.786 104.776-106.88-104.776-116.323 104.776-129.010-104.776v896c0 70.692 57.308 128 128 128h640zM128 896c-34.084 0-61.945-26.644-63.891-60.24l-0.109-3.76v-761.557l67.163 54.529 112.293-101.143 111.278 109.041 95.143-104.049 109.114 110.016 75.632-102.315 84.411 92.116 112.965-67.293v770.654c0 34.084-26.644 61.945-60.24 63.891l-643.76 0.109zM288 256c17.673 0 32-14.327 32-32s-14.327-32-32-32h-106.667c-17.673 0-32 14.327-32 32s14.327 32 32 32h106.667zM629.333 362.667c17.673 0 32-14.327 32-32s-14.327-32-32-32h-448c-17.673 0-32 14.327-32 32s14.327 32 32 32h448zM629.333 469.333c17.673 0 32-14.327 32-32s-14.327-32-32-32h-448c-17.673 0-32 14.327-32 32s14.327 32 32 32h448zM501.333 576c17.673 0 32-14.327 32-32s-14.327-32-32-32h-320c-17.673 0-32 14.327-32 32s14.327 32 32 32h320zM181.333 832c17.673 0 32-14.327 32-32v-128c0-17.673-14.327-32-32-32s-32 14.327-32 32v128c0 17.673 14.327 32 32 32zM277.333 832c11.782 0 21.333-9.551 21.333-21.333v-149.333c0-11.782-9.551-21.333-21.333-21.333s-21.333 9.551-21.333 21.333v149.333c0 11.782 9.551 21.333 21.333 21.333zM405.333 832c11.782 0 21.333-9.551 21.333-21.333v-149.333c0-11.782-9.551-21.333-21.333-21.333h-42.667c-11.782 0-21.333 9.551-21.333 21.333v149.333c0 11.782 9.551 21.333 21.333 21.333h42.667zM618.667 832c11.782 0 21.333-9.551 21.333-21.333v-149.333c0-11.782-9.551-21.333-21.333-21.333h-42.667c-11.782 0-21.333 9.551-21.333 21.333v149.333c0 11.782 9.551 21.333 21.333 21.333h42.667zM714.667 832c17.673 0 32-14.327 32-32v-128c0-17.673-14.327-32-32-32s-32 14.327-32 32v128c0 17.673 14.327 32 32 32zM490.667 832c11.782 0 21.333-9.551 21.333-21.333v-149.333c0-11.782-9.551-21.333-21.333-21.333s-21.333 9.551-21.333 21.333v149.333c0 11.782 9.551 21.333 21.333 21.333z" />
<glyph unicode="&#xe912;" glyph-name="gifts" horiz-adv-x="1280" d="M1215.914 511.959h-54.596c14.199 19.999 22.598 42.997 22.598 67.795 0 60.996-50.596 124.191-135.59 124.191-85.794 0-149.189-69.595-184.387-124.391-35.397 54.796-98.593 124.391-184.387 124.391-14.399 0-27.198-2.4-39.597-5.6v5.6c0 35.397-28.598 63.995-63.995 63.995h-140.79l86.194 61.596c7.199 5.2 8.799 15.199 3.8 22.398l-18.599 25.998c-5.2 7.199-15.199 8.799-22.398 3.8l-106.192-75.995 45.597 121.391c3.2 8.199-1 17.399-9.399 20.599l-29.998 11.199c-8.199 3.2-17.599-1-20.599-9.399l-43.597-116.192-43.597 116.192c-3.2 8.199-12.399 12.399-20.599 9.399l-29.998-11.199c-8.199-3.2-12.399-12.399-9.399-20.599l45.597-121.391-105.992 75.795c-7.199 5.2-17.199 3.4-22.398-3.8l-18.599-25.998c-5.2-7.199-3.4-17.199 3.8-22.398l85.994-61.396h-140.79c-35.397 0-63.995-28.598-63.995-63.995v-703.95c0-35.397 28.598-63.995 63.995-63.995h1151.918c35.397 0 63.995 28.598 63.995 63.995v447.968c0 35.397-28.598 63.995-63.995 63.995zM679.552 639.95c75.195 0 131.991-91.793 149.389-127.991h-114.992c-43.797 0-68.795 12.399-82.194 22.798-15.599 11.999-23.798 27.598-23.798 44.997 0 29.598 26.798 60.196 71.595 60.196zM447.968 447.964v-447.968h-383.973v703.95h511.964v-43.997c-20.599-22.798-31.998-51.596-31.998-80.194 0-24.798 8.199-47.797 22.598-67.795h-54.596c-35.397 0-63.995-28.598-63.995-63.995v0zM831.941-0.005h-319.977v191.986h319.977v-191.986zM831.941 255.977h-319.977v191.986h319.977v-191.986zM1048.326 639.95c44.797 0 71.595-30.598 71.595-60.196 0-17.399-8.199-32.998-23.798-44.997-13.399-10.399-38.397-22.798-82.194-22.798h-114.992c17.399 36.197 74.195 127.991 149.389 127.991v0zM1215.914-0.005h-319.977v191.986h319.977v-191.986zM1215.914 255.977h-319.977v191.986h319.977v-191.986z" />
<glyph unicode="&#xe913;" glyph-name="vk" d="M1017.061 213.192c-1.233 2.662-2.388 4.874-3.458 6.642-17.714 31.904-51.562 71.063-101.532 117.484l-1.057 1.063-0.528 0.522-0.535 0.535h-0.535c-22.679 21.622-37.039 36.152-43.054 43.596-11 14.177-13.466 28.525-7.451 43.061 4.247 10.987 20.206 34.188 47.843 69.628 14.53 18.784 26.045 33.842 34.547 45.181 61.31 81.509 87.89 133.6 79.734 156.278l-3.164 5.304c-2.127 3.19-7.62 6.107-16.468 8.769-8.867 2.662-20.206 3.099-34.031 1.331l-153.088-1.063c-2.479 0.881-6.022 0.796-10.635-0.267-4.606-1.063-6.916-1.598-6.916-1.598l-2.662-1.331-2.114-1.598c-1.768-1.057-3.719-2.916-5.846-5.572-2.114-2.655-3.889-5.761-5.304-9.304-16.663-42.878-35.617-82.749-56.879-119.598-13.114-21.974-25.158-41.019-36.152-57.147-10.987-16.122-20.199-27.996-27.637-35.61-7.444-7.62-14.171-13.727-20.199-18.34s-10.628-6.557-13.819-5.846c-3.19 0.711-6.198 1.422-9.043 2.127-4.959 3.19-8.945 7.529-11.953 13.023-3.021 5.494-5.056 12.409-6.12 20.734-1.057 8.332-1.683 15.502-1.859 21.53-0.17 6.022-0.091 14.53 0.267 25.517 0.365 10.987 0.535 18.425 0.535 22.326 0 13.466 0.261 28.081 0.789 43.85 0.535 15.769 0.972 28.264 1.331 37.476s0.528 18.96 0.528 29.236c0 10.276-0.62 18.34-1.859 24.186-1.227 5.846-3.093 11.516-5.572 17.009-2.486 5.494-6.12 9.747-10.896 12.762-4.782 3.008-10.726 5.402-17.805 7.177-18.784 4.247-42.702 6.55-71.768 6.909-65.909 0.705-108.259-3.549-127.043-12.762-7.444-3.895-14.177-9.212-20.199-15.946-6.381-7.797-7.268-12.051-2.662-12.755 21.263-3.184 36.321-10.804 45.181-22.855l3.19-6.381c2.486-4.606 4.965-12.762 7.444-24.453s4.078-24.629 4.782-38.8c1.768-25.869 1.768-48.019 0-66.444-1.775-18.431-3.451-32.785-5.050-43.061s-3.986-18.601-7.177-24.982c-3.19-6.374-5.317-10.276-6.381-11.692s-1.951-2.303-2.655-2.655c-4.606-1.768-9.395-2.662-14.354-2.662-4.965 0-10.987 2.486-18.073 7.444-7.085 4.965-14.438 11.783-22.059 20.467s-16.213 20.819-25.784 36.413c-9.565 15.593-19.488 34.018-29.764 55.281l-8.501 15.417c-5.317 9.924-12.579 24.362-21.791 43.322-9.219 18.96-17.368 37.3-24.453 55.020-2.832 7.444-7.085 13.107-12.755 17.009l-2.662 1.598c-1.768 1.416-4.606 2.916-8.501 4.515-3.902 1.598-7.973 2.747-12.227 3.458l-145.65-1.063c-14.882 0-24.982-3.367-30.299-10.1l-2.127-3.19c-1.063-1.768-1.598-4.606-1.598-8.501 0-3.902 1.063-8.684 3.19-14.354 21.263-49.97 44.385-98.166 69.367-144.587s46.688-83.812 65.113-112.147c18.425-28.355 37.208-55.111 56.344-80.269s31.806-41.286 38.004-48.372c6.205-7.099 11.078-12.403 14.621-15.946l13.29-12.755c8.508-8.508 20.995-18.699 37.476-30.567 16.481-11.874 34.729-23.566 54.753-35.095 20.023-11.509 43.322-20.898 69.902-28.159 26.58-7.275 52.449-10.191 77.607-8.782h61.133c12.396 1.070 21.791 4.972 28.172 11.698l2.114 2.662c1.422 2.114 2.753 5.402 3.986 9.826 1.24 4.43 1.859 9.31 1.859 14.615-0.359 15.234 0.796 28.968 3.451 41.195 2.649 12.22 5.67 21.433 9.043 27.637 3.373 6.198 7.183 11.431 11.424 15.672 4.254 4.254 7.275 6.824 9.049 7.712 1.768 0.894 3.177 1.501 4.241 1.859 8.508 2.838 18.516 0.091 30.038-8.24s22.326-18.614 32.433-30.834c10.1-12.233 22.235-25.96 36.406-41.195 14.184-15.234 26.58-26.567 37.208-34.018l10.628-6.381c7.099-4.254 16.311-8.155 27.65-11.698 11.326-3.543 21.243-4.43 29.764-2.655l136.072 2.12c13.46 0 23.931 2.231 31.363 6.655 7.444 4.424 11.861 9.304 13.29 14.615 1.422 5.311 1.501 11.339 0.267 18.079-1.253 6.727-2.492 11.424-3.732 14.086z" />
<glyph unicode="&#xe914;" glyph-name="download" d="M896 448c21.881 0 39.915-16.471 42.38-37.691l0.287-4.976v-245.333c0-27.614-20.987-50.327-47.88-53.058l-5.453-0.275h-746.667c-27.614 0-50.327 20.987-53.058 47.88l-0.275 5.453v245.333c0 23.564 19.103 42.667 42.667 42.667 21.881 0 39.915-16.471 42.38-37.691l0.287-4.976v-213.333h682.667v213.333c0 21.881 16.471 39.915 37.691 42.38l4.976 0.287zM512 832c23.564 0 42.667-19.103 42.667-42.667v-333.995l108.183 108.165c15.472 15.472 39.871 16.577 56.618 3.315l3.721-3.315c15.472-15.472 16.577-39.871 3.315-56.618l-3.315-3.721-173.477-173.477c-19.526-19.526-50.426-20.747-71.374-3.661l-4.051 3.661-173.477 173.477c-16.662 16.662-16.662 43.677 0 60.34 15.472 15.472 39.871 16.577 56.618 3.315l3.721-3.315 108.183-108.165v333.995c0 23.564 19.103 42.667 42.667 42.667z" />
<glyph unicode="&#xe915;" glyph-name="loading" d="M511.883 672.002h-0.361c-17.519 0.192-31.648 14.433-31.659 31.976v0.362c0 0.105 0.116 11.722 0.116 63.658v96.001c0 17.674 14.327 32.001 32.001 32.001s32.001-14.327 32.001-32.001v0-96.001c0-52.586-0.112-63.882-0.119-64.338-0.194-17.518-14.433-31.646-31.976-31.659h-0.001zM511.998 0.002c-17.673 0-31.999 14.326-31.999 31.999v0 96.38c0 51.611-0.112 63.174-0.116 63.286s0 0.242 0 0.361c0 0.047 0 0.102 0 0.157 0 17.673 14.327 31.999 31.999 31.999 17.618 0 31.91-14.237 31.999-31.834v-0.009c0-0.455 0.119-11.712 0.119-64.034v-96.308c0-17.673-14.326-31.999-31.999-31.999-0.001 0-0.003 0-0.004 0v0zM330.899 596.979c-0.013 0-0.029 0-0.045 0-8.942 0-17.024 3.679-22.816 9.607l-0.006 0.006c-0.076 0.076-8.207 8.37-44.932 45.094l-67.903 67.885c-5.79 5.791-9.372 13.79-9.372 22.627 0 17.673 14.327 32 32 32 8.837 0 16.837-3.582 22.628-9.373l67.881-67.881c37.183-37.183 45.090-45.253 45.412-45.578 5.649-5.766 9.134-13.669 9.134-22.386 0-17.667-14.317-31.99-31.982-31.999h-0.001zM806.137 121.885c-0.012 0-0.026 0-0.040 0-8.825 0-16.812 3.583-22.588 9.374l-67.886 67.882c-36.724 36.724-45.018 44.859-45.098 44.939-5.934 5.814-9.612 13.91-9.612 22.865 0 17.673 14.327 32 32 32 8.718 0 16.622-3.486 22.394-9.141l-0.005 0.005c0.325-0.318 8.395-8.229 45.578-45.412l67.881-67.881c5.794-5.791 9.378-13.793 9.378-22.632 0-17.673-14.326-31.999-31.999-31.999-0.001 0-0.002 0-0.003 0v0zM224 121.885c0.012 0 0.026 0 0.040 0 8.825 0 16.812 3.583 22.588 9.374l67.882 67.882c36.724 36.724 45.022 44.859 45.098 44.939 5.934 5.814 9.612 13.91 9.612 22.865 0 17.673-14.327 32-32 32-8.718 0-16.622-3.486-22.394-9.141l0.005 0.005c-0.325-0.318-8.395-8.229-45.578-45.412l-67.881-67.885c-5.792-5.791-9.374-13.791-9.374-22.628 0-17.673 14.326-31.999 31.999-31.999 0.001 0 0.002 0 0.003 0v0zM255.949 415.941h-0.361c-0.105 0-11.722 0.116-63.658 0.116h-95.986c-17.674 0-32.001 14.327-32.001 32.001s14.327 32.001 32.001 32.001v0h95.997c52.586 0 63.882-0.112 64.338-0.119 17.519-0.192 31.648-14.433 31.659-31.976v-0.362c-0.194-17.522-14.44-31.652-31.987-31.659h-0.001zM767.939 415.941c-17.554 0.003-31.805 14.139-31.995 31.649v0.379c0.015 17.542 14.143 31.778 31.641 31.97h0.018c0.455 0 11.755 0.119 64.341 0.119h96.001c17.674 0 32.001-14.327 32.001-32.001s-14.327-32.001-32.001-32.001v0h-96.001c-51.936 0-63.554-0.112-63.666-0.116h-0.336zM692.999 596.982c-17.67 0.003-31.994 14.328-31.994 31.999 0 8.716 3.484 16.617 9.136 22.388l-0.005-0.005c0.318 0.325 8.229 8.395 45.412 45.578l67.881 67.885c5.792 5.793 13.793 9.376 22.632 9.376 17.675 0 32.004-14.329 32.004-32.004 0-8.837-3.581-16.837-9.372-22.628l-67.892-67.881c-31.020-31.024-41.644-41.76-44.242-44.393l-0.697-0.722c-5.797-5.921-13.873-9.591-22.805-9.591-0.020 0-0.041 0-0.061 0h0.003z" />
<glyph unicode="&#xe916;" glyph-name="warning" d="M512 960c282.77 0 512-229.23 512-512s-229.23-512-512-512c-282.77 0-512 229.23-512 512s229.23 512 512 512zM512 283.429c-30.297 0-54.857-24.56-54.857-54.857s24.56-54.857 54.857-54.857c30.297 0 54.857 24.56 54.857 54.857s-24.56 54.857-54.857 54.857zM511.942 740.571c-0.8 0-1.6-0.018-2.399-0.055-28.949-1.325-51.343-25.867-50.017-54.816v0l14.231-310.881c0.936-20.441 17.781-36.533 38.244-36.533 20.461 0 37.303 16.094 38.233 36.534v0l14.141 310.88c0.036 0.795 0.054 1.59 0.054 2.385 0 28.988-23.499 52.487-52.487 52.487z" />
<glyph unicode="&#xe917;" glyph-name="like" horiz-adv-x="1195" d="M614.932 773.447c29.202 35.818 60.175 68.142 92.917 96.972 28.317 23.588 60.396 44.991 96.235 64.211s73.227 27.519 112.164 24.898c54.865-4.368 100.66-17.254 137.384-38.658s65.927-48.486 87.607-81.247c21.681-32.761 36.503-69.89 44.467-111.387s10.619-84.086 7.964-127.767c-2.655-43.681-10.398-85.396-23.229-125.146s-28.76-76.879-47.786-111.387c-19.026-34.508-40.043-66.395-63.051-95.661s-46.016-55.693-69.024-79.281c-35.397-35.818-72.342-69.234-110.836-100.248s-75.218-57.659-110.173-79.936c-34.954-22.277-66.812-39.968-95.572-53.072s-51.104-19.656-67.033-19.656c-17.698-0.874-40.264 5.242-67.697 18.346s-57.52 30.795-90.262 53.072c-32.742 22.277-67.254 48.704-103.536 79.281s-72.121 62.901-107.518 96.972c-23.008 21.841-47.786 47.176-74.333 76.005s-51.547 60.498-74.997 95.006c-23.45 34.508-43.582 71.855-60.396 112.042s-26.105 82.994-27.875 128.422c-1.77 45.428 3.097 88.017 14.601 127.767s28.76 75.35 51.768 106.8c23.008 31.45 51.325 57.877 84.953 79.281s71.679 36.474 114.155 45.21c21.238 4.368 42.476 5.023 63.714 1.966s42.034-8.299 62.387-15.725c20.353-7.426 39.821-16.817 58.405-28.174s36.282-23.151 53.095-35.382c38.937-28.829 76.103-63.337 111.5-103.524v0z" />
<glyph unicode="&#xe918;" glyph-name="minus" d="M128 490.667h768c23.564 0 42.667-19.103 42.667-42.667s-19.103-42.667-42.667-42.667h-768c-23.564 0-42.667 19.103-42.667 42.667s19.103 42.667 42.667 42.667z" />
<glyph unicode="&#xe919;" glyph-name="plus" d="M512 874.667c23.564 0 42.667-19.103 42.667-42.667v-341.333h341.333c23.564 0 42.667-19.103 42.667-42.667s-19.103-42.667-42.667-42.667h-341.333v-341.333c0-23.564-19.103-42.667-42.667-42.667s-42.667 19.103-42.667 42.667v341.333h-341.333c-23.564 0-42.667 19.103-42.667 42.667s19.103 42.667 42.667 42.667h341.333v341.333c0 23.564 19.103 42.667 42.667 42.667z" />
<glyph unicode="&#xe91a;" glyph-name="tiktok" horiz-adv-x="896" d="M896 540.18c-0.299-0.001-0.652-0.001-1.005-0.001-91.768 0-176.664 29.423-245.768 79.349l1.233-0.848v-357.44c-0.068-179.496-145.594-324.981-325.1-324.981-179.548 0-325.1 145.552-325.1 325.1s145.552 325.1 325.1 325.1c15.745 0 31.228-1.119 46.375-3.283l-1.735 0.203v-179.78c-13.386 4.362-28.789 6.877-44.78 6.877-82.423 0-149.24-66.817-149.24-149.24s66.817-149.24 149.24-149.24c82.423 0 149.24 66.817 149.24 149.24 0 0.001 0 0.002 0 0.004v0 698.76h176c-0.005-0.592-0.008-1.292-0.008-1.993 0-14.966 1.356-29.615 3.953-43.83l-0.225 1.484c12.99-67.689 52.414-124.345 106.88-159.865l0.94-0.575c37.691-25.239 84.063-40.28 133.949-40.28 0.018 0 0.036 0 0.054 0h-0.003z" />
<glyph unicode="&#xe91b;" glyph-name="discord" d="M867.426 774.683c-67.278 30.801-138.302 52.653-211.259 64.997-9.983-17.847-19.017-36.209-27.062-55.009-77.713 11.71-156.742 11.71-234.455 0-8.049 18.799-17.082 37.16-27.062 55.009-73.003-12.448-144.075-34.351-211.42-65.158-133.698-197.809-169.941-390.704-151.82-580.861v0c78.297-57.849 165.933-101.845 259.1-130.074 20.978 28.215 39.542 58.148 55.493 89.481-30.297 11.315-59.539 25.276-87.387 41.72 7.329 5.316 14.497 10.792 21.424 16.108 164.062-77.154 353.978-77.154 518.040 0 7.007-5.718 14.175-11.195 21.424-16.108-27.902-16.471-57.197-30.458-87.548-41.801 15.932-31.318 34.496-61.226 55.493-89.4 93.246 28.116 180.95 72.090 259.261 129.993v0c21.263 220.521-36.324 411.645-152.222 581.103zM341.896 310.606c-50.499 0-92.219 45.828-92.219 102.206s40.27 102.609 92.058 102.609c51.788 0 93.186-46.231 92.3-102.609s-40.673-102.206-92.139-102.206zM682.101 310.606c-50.58 0-92.139 45.828-92.139 102.206s40.27 102.609 92.139 102.609c51.868 0 92.944-46.231 92.058-102.609s-40.593-102.206-92.058-102.206z" />
<glyph unicode="&#xe91c;" glyph-name="search" d="M448 917.333c223.859 0 405.333-181.474 405.333-405.333 0-105.212-40.086-201.061-105.818-273.108l179.698-199.567c15.767-17.512 14.354-44.49-3.158-60.257s-44.49-14.354-60.257 3.158l-180.058 200.006c-66.422-47.567-147.811-75.565-235.74-75.565-223.859 0-405.333 181.474-405.333 405.333s181.474 405.333 405.333 405.333zM448 832c-176.731 0-320-143.269-320-320s143.269-320 320-320c176.731 0 320 143.269 320 320s-143.269 320-320 320z" />
<glyph unicode="&#xe91d;" glyph-name="contact" d="M870.4 832c63.623 0 115.2-51.577 115.2-115.2v-537.6c0-63.623-51.577-115.2-115.2-115.2h-716.8c-63.623 0-115.2 51.577-115.2 115.2v537.6c0 63.623 51.577 115.2 115.2 115.2zM870.4 768h-716.8c-28.277 0-51.2-22.923-51.2-51.2v-537.6c0-28.277 22.923-51.2 51.2-51.2h716.8c28.277 0 51.2 22.923 51.2 51.2v537.6c0 28.277-22.923 51.2-51.2 51.2zM326.945 550.394l185.042-137.709 185.043 137.697c13.562 10.092 32.493 7.841 43.347-4.782l1.429-1.785c10.551-14.178 7.611-34.225-6.567-44.776l-223.252-166.141-223.252 166.155c-14.178 10.552-17.117 30.599-6.565 44.776s30.599 17.117 44.776 6.565z" />
<glyph unicode="&#xe91e;" glyph-name="report" d="M470.883 928.003c26.329 10.727 55.81 10.734 82.153 0.014l299.768-122.083c41.032-16.698 67.861-56.585 67.861-100.884v-381.696c0-87.158-56.82-165.815-153.176-237.044-64.72-47.843-140.259-87.44-213.548-117.974-26.862-11.222-57.099-11.222-83.932-0.012-73.372 30.568-148.863 70.13-213.575 117.962-96.358 71.223-153.178 149.89-153.178 237.081v381.67c0 44.3 26.829 84.187 67.853 100.881zM528.906 868.741c-10.86 4.419-23.017 4.416-33.875-0.007l-299.788-122.091c-16.921-6.886-27.985-23.335-27.985-41.605v-381.67c0-62.184 45.55-125.248 127.219-185.614 59.869-44.252 131.131-81.598 200.176-110.363 11.076-4.627 23.543-4.627 34.648 0.012 68.96 28.73 140.267 66.109 200.145 110.373 81.669 60.372 127.221 123.431 127.221 185.58v381.696c0 18.27-11.064 34.719-27.993 41.608zM731.528 599.601c12.434-12.56 12.332-32.821-0.228-45.254l-232.472-230.144-154.448 140.802c-13.060 11.906-13.996 32.146-2.089 45.207s32.146 13.996 45.207 2.089l109.513-99.832 189.263 187.36c12.56 12.434 32.821 12.332 45.254-0.228z" />
<glyph unicode="&#xe91f;" glyph-name="warranty" d="M798.938 877.171c40.295 0 72.96-32.665 72.96-72.96v-778.982c0-23.979-25.399-39.439-46.699-28.424l-313.212 161.967-313.266-161.968c-20.673-10.688-45.206 3.562-46.631 26.333l-0.065 2.093v778.982c0 40.295 32.665 72.96 72.96 72.96zM798.938 813.171h-573.952c-4.948 0-8.96-4.012-8.96-8.96v-726.413l281.278 145.418c8.51 4.399 18.501 4.737 27.238 1.014l2.157-1.015 281.186-145.404 0.013 726.4c0 4.536-3.371 8.285-7.744 8.878l-1.216 0.082zM675.994 564.595c17.673 0 32-14.327 32-32s-14.327-32-32-32h-327.974c-17.673 0-32 14.327-32 32s14.327 32 32 32h327.974z" />
<glyph unicode="&#xe920;" glyph-name="wholesale" d="M817.907 910.131c58.3 0 107.098-42.932 107.098-98.074v-638.358c-0.724-33.353-18.691-63.946-46.712-80.36l-145.081-90.546c-18.142-11.152-39.039-17.014-60.201-16.926h-466.944c-58.297 0-107.085 42.946-107.085 98.088v728.090c0 55.151 48.783 98.086 107.085 98.086zM817.907 846.131h-611.84c-24.645 0-43.085-16.229-43.085-34.086v-728.090c0-17.85 18.446-34.088 43.085-34.088h467.078c9.372-0.039 18.568 2.541 26.366 7.334l145.654 90.891c9.608 5.633 15.607 15.847 15.839 26.295v637.67c0 17.841-18.45 34.074-43.098 34.074zM595.2 294.4c17.673 0 32-14.327 32-32s-14.327-32-32-32h-166.4c-17.673 0-32 14.327-32 32s14.327 32 32 32h166.4zM698.893 497.779c17.673 0 32-14.327 32-32s-14.327-32-32-32h-373.811c-17.673 0-32 14.327-32 32s14.327 32 32 32h373.811zM698.893 679.821c17.673 0 32-14.327 32-32s-14.327-32-32-32h-373.811c-17.673 0-32 14.327-32 32s14.327 32 32 32h373.811z" />
<glyph unicode="&#xe921;" glyph-name="language" d="M512 938.667c257.226 0 468.222-197.933 488.989-449.8l1.678 0.022v-81.778l-1.681-0.019c-20.787-251.847-231.774-449.759-488.986-449.759s-468.199 197.911-488.986 449.759l-1.681 0.019v81.778l1.678-0.022c20.767 251.867 231.763 449.8 488.989 449.8zM512 202.667c-42.637 0-83.75-6.526-122.394-18.634 31.503-89.034 77.027-144.922 122.394-144.922s90.891 55.888 122.349 144.826c-38.599 12.203-79.712 18.729-122.349 18.729zM314.218 151.684l-12.071-6.904c-12.27-7.351-24.122-15.328-35.512-23.885l13.236-9.551c22.327-15.424 46.262-28.684 71.505-39.477-11.164 18.94-21.351 39.878-30.496 62.52l-6.662 17.297zM709.775 151.733l-0.247-0.74c-10.714-29.076-23.058-55.638-36.853-79.145 25.065 10.751 48.873 23.93 71.096 39.248l13.594 9.786c-15.088 11.338-30.985 21.656-47.589 30.851zM267.457 407.073l-162.322-0.007c8.207-82.564 40.973-157.902 90.89-218.603l9.676-11.34c26.197 20.958 54.589 39.287 84.776 54.587-11.092 47.044-18.544 98.289-21.855 152.133l-1.164 23.23zM918.866 407.066l-162.322 0.007c-2.42-62.347-10.343-121.598-23.001-175.413 30.175-15.253 58.566-33.583 84.763-54.543l9.671 11.346c49.917 60.701 82.683 136.039 90.89 218.603zM674.672 407.068h-325.344c2.24-51.66 8.646-100.293 18.181-144.231 45.684 14.043 94.204 21.608 144.49 21.608 50.289 0 98.81-7.565 144.489-21.62 8.174 37.672 14.049 78.784 16.971 122.294l1.212 21.95zM205.696 718.883l9.807 10.685c-60.842-64.047-101.15-147.789-110.373-240.675l162.325-0.007c2.418 62.362 10.342 121.627 23.003 175.454-30.175 15.253-58.566 33.583-84.763 54.543zM656.482 633.204l-11.606-3.444c-42.26-11.861-86.827-18.204-132.876-18.204-50.289 0-98.81 7.565-144.489 21.62-9.539-43.962-15.947-92.609-18.185-144.285h325.347c-1.919 44.307-6.903 86.387-14.297 125.19l-3.895 19.123zM827.015 708.7l-8.715 10.177-7.234-5.676c-24.161-18.602-50.104-35.003-77.529-48.905 12.662-53.754 20.589-113.034 23.008-175.411l162.325 0.007c-8.252 83.108-41.389 158.896-91.854 219.807v0zM512 856.889l-4.795-0.207c-43.762-3.772-87.204-58.815-117.553-144.619 38.615-12.206 79.72-18.729 122.349-18.729s83.734 6.523 122.371 18.626c-31.466 89.024-76.997 144.929-122.371 144.929zM672.625 824.133l2.147-3.596c13.066-22.804 24.793-48.382 35.025-76.261 16.572 9.173 32.453 19.477 47.527 30.799l12.315-9.547c-25.081 20.375-52.622 37.839-82.11 51.875l-14.904 6.73zM351.325 824.151l-0.966-0.455c-29.243-12.598-56.722-28.511-81.965-47.265l-1.718-1.283c15.074-11.338 30.955-21.655 47.542-30.849 10.772 29.362 23.202 56.159 37.106 79.852z" />
<glyph unicode="&#xe922;" glyph-name="store" d="M794.741 917.335c59.022 0.19 111.839-36.958 132.631-92.564l70.953-179.562 5.684-14.542c19.92-40.208 24.020-79.153 17.874-123.586l-2.177-12.938c-3.378-16.544-8.578-32.586-15.697-48.162l-6.127-12.351-6.306-10.935-4.198-6.627c-7.426-11.24-15.909-21.81-25.562-31.865-7.080-7.239-14.667-13.957-22.303-19.827l-9.362-6.85-4.679-3.112-13.688-8.294-5.198-2.671-10.585-5.056v-253.060c0-58.91-47.756-106.667-106.667-106.667h-554.667c-58.91 0-106.667 47.756-106.667 106.667v253.23l-13.187 6.215c-0.872 0.45-1.727 0.905-2.663 1.414l-4.499 2.717c-3.402 1.983-6.425 3.816-9.867 6.084l-4.57 3.089c-11.041 7.638-21.358 16.34-31.067 26.223-6.275 6.505-12.126 13.382-17.626 20.722l-8.669 12.421c-2.468 3.787-4.715 7.442-6.695 10.899l-3.659 6.649c-7.854 14.822-13.962 30.589-18.082 46.348l-3.080 13.413c-8.067 40.241-4.807 81.831 9.177 120.039l83.006 209.928c21.051 55.95 73.837 92.919 132.591 92.611h565.631zM658.173 385.639l-6.41-6.812c-34.268-34.671-80.094-56.010-129.733-58.542l-9.976-0.254c-52.947 0.029-102.906 21.585-139.623 58.663l-6.516 6.902-1.266-1.432c-7.134-7.293-14.727-14.025-22.338-19.868l-9.107-6.656-3.274-2.236-15.184-9.253-5.431-2.814-12.070-5.771-16.411-6.344-7.181-2.332-14.585-3.777c-1.938-0.442-3.977-0.875-6.217-1.315-13.092-2.536-26.393-3.795-39.509-3.8l-0.007-234.665c0-11.782 9.551-21.333 21.333-21.333h554.667c11.782 0 21.333 9.551 21.333 21.333l0.012 234.704c-9.241-0.009-18.418 0.602-27.406 1.829l-13.748 2.266-6.991 1.595-8.372 2.261-2.905 0.711-5.746 1.788-15.087 5.577-9.269 4.254c-3.509 1.638-6.065 2.866-8.552 4.156l-6.362 3.567-10.392 6.334-5.063 3.365c-11.166 7.737-21.594 16.55-31.342 26.472l-1.271 1.428zM795.019 832.002h-566.358c-22.754 0.119-43.691-14.516-52.783-38.646l-79.458-200.921c-10.917-25.382-13.873-53.673-8.914-78.579l2.471-10.932c2.485-9.506 6.219-19.096 10.283-26.788l5.569-9.851 6.977-10.082c3.383-4.514 6.942-8.698 10.211-12.092 5.953-6.059 12.147-11.286 17.989-15.333l6.532-4.305 5.447-3.35 3.94-1.981 9.434-4.336 6.009-2.317 4.444-1.523 7.447-2.046 4.457-1.026 9.056-1.528c9.283-1.274 19.182-1.374 28.946-0.298l9.692 1.467 4.227 0.908 9.306 2.482 2.219 0.725 11.52 4.48 6.379 2.976 2.922 1.546 10.965 6.699 6.399 4.632c2.974 2.283 5.996 4.849 8.945 7.599l3.429 3.428 61.109 69.102 69.236-73.373c21.161-21.369 49.493-33.357 76.817-33.401l7.801 0.171c27.579 1.407 53.531 13.215 71.932 31.796l70.319 74.734 61.389-69.029 3.548-3.433c3.050-2.845 6.095-5.441 8.975-7.683l6.413-4.652 7.712-4.766 5.139-2.864 9.984-4.633 9.771-3.627 8.649-2.427 4.407-0.987 8.888-1.52c9.409-1.284 19.316-1.387 28.788-0.37l10.793 1.719 11.947 2.987 3.755 1.237 10.709 4.139 6.785 3.22 3.071 1.601 9.106 5.444 7.741 5.634c4.532 3.484 9.104 7.544 12.757 11.274 6.121 6.376 11.37 12.919 15.031 18.43l6.148 9.821 4.96 9.902c4.387 9.599 7.597 19.459 9.157 26.846l1.799 10.474c3.728 26.95 1.876 46.708-6.402 66.551l-6.422 14.278-5.567 14.246-71.52 181.036c-8.404 22.477-29.439 37.19-52.424 37.116z" />
<glyph unicode="&#xe923;" glyph-name="verify" d="M557.167 951.571l314.467-128.070c43.044-17.517 71.189-59.359 71.189-105.831v-400.413c0-91.432-59.606-173.945-160.687-248.668-67.893-50.189-147.136-91.728-224.019-123.759-28.179-11.773-59.899-11.773-88.047-0.013-76.969 32.067-156.162 73.569-224.048 123.747-101.083 74.715-160.689 157.24-160.689 248.706v400.386c0 46.472 28.145 88.315 71.181 105.828l314.471 128.071c27.621 11.253 58.546 11.26 86.181 0.015zM503.182 872.529l-314.503-128.084c-10.888-4.431-18.012-15.023-18.012-26.789v-400.386c0-56.3 40.021-116.475 126.078-180.084 57.661-42.62 128.716-81.341 206.22-113.631 7.101-2.967 15.128-2.966 22.335 0.045 77.333 32.218 148.442 70.978 206.11 113.608 86.058 63.617 126.080 123.784 126.080 180.048v400.413c0 11.766-7.125 22.358-18.041 26.801l-314.443 128.060c-7.002 2.849-14.831 2.848-21.823-0.001zM729.82 609.485l3.721-3.315c16.662-16.662 16.662-43.677 0-60.34l-233.817-233.817c-20.828-20.828-54.597-20.828-75.425 0l-113.137 113.137c-16.662 16.662-16.662 43.677 0 60.34s43.677 16.662 60.34 0l90.51-90.51 211.189 211.189c15.472 15.472 39.871 16.577 56.618 3.315z" />
<glyph unicode="&#xe924;" glyph-name="telegram" d="M385.229 70.8l15.908 240.325 436.335 393.156c19.317 17.612-3.977 26.135-29.544 10.795l-538.601-340.319-232.939 73.859c-49.997 14.204-50.565 48.86 11.363 73.859l907.327 349.977c41.475 18.749 81.245-10.227 65.337-73.859l-154.535-727.793c-10.795-51.701-42.043-64.2-85.222-40.338l-235.212 173.852-113.061-109.652c-13.067-13.067-23.862-23.862-47.156-23.862z" />
<glyph unicode="&#xe925;" glyph-name="locator" d="M512 960c-259.206 0-469.333-205.717-469.333-459.481 0-204.999 149.746-391.334 449.34-559.31 12.385-6.945 27.602-6.945 39.988 0.001 299.61 167.955 449.339 354.285 449.339 559.31 0 253.765-210.128 459.481-469.333 459.481zM512 881.232c214.771 0 388.875-170.451 388.875-380.939l-0.222-12.504c-6.207-161.228-129.57-313.217-369.753-455.76l-18.899-11.068-18.965 11.107c-246.414 146.193-369.912 302.511-369.912 468.451 0 210.262 174.106 380.713 388.876 380.713zM512 671.183c-96.276 0-174.324-76.409-174.324-170.664s78.047-170.664 174.324-170.664c96.276 0 174.324 76.409 174.324 170.664s-78.047 170.664-174.324 170.664zM512 592.415c51.841 0 93.867-41.143 93.867-91.896s-42.026-91.896-93.867-91.896c-51.841 0-93.867 41.143-93.867 91.896s42.026 91.896 93.867 91.896z" />
<glyph unicode="&#xe926;" glyph-name="help" d="M512 917.333c259.206 0 469.333-210.128 469.333-469.333s-210.128-469.333-469.333-469.333c-259.206 0-469.333 210.128-469.333 469.333s210.128 469.333 469.333 469.333zM512 832c-212.077 0-384-171.923-384-384s171.923-384 384-384c212.077 0 384 171.923 384 384s-171.923 384-384 384zM512 276.767c27.001 0 48.889-21.888 48.889-48.889s-21.888-48.889-48.889-48.889c-27.001 0-48.889 21.888-48.889 48.889s21.888 48.889 48.889 48.889zM512 717.011c89.589 0 162.433-70.889 162.433-158.033v-2.2l-0.244-2.2c-9.533-85.189-52.433-112.567-83.722-132.611-12.467-8.067-22.489-14.3-28.6-23.222-7.089-10.267-10.633-13.933-10.633-36.422 0-21.756-17.6-39.356-39.356-39.356s-39.356 17.6-39.356 39.356c0 90.078 43.633 105.722 75.533 126.133 25.056 16.133 41.8 26.767 47.544 72.722-1.222 42.656-38.256 77-83.722 77-46.2 0-83.722-35.444-83.722-79.078 0-21.756-17.6-39.356-39.356-39.356s-39.356 17.6-39.356 39.356c0 87.022 72.967 157.911 162.556 157.911z" />
<glyph unicode="&#xe927;" glyph-name="info" d="M512 917.333c259.206 0 469.333-210.128 469.333-469.333s-210.128-469.333-469.333-469.333c-259.206 0-469.333 210.128-469.333 469.333s210.128 469.333 469.333 469.333zM512 832c-212.077 0-384-171.923-384-384s171.923-384 384-384c212.077 0 384 171.923 384 384s-171.923 384-384 384zM512 512c23.564 0 42.667-19.103 42.667-42.667v-256c0-23.564-19.103-42.667-42.667-42.667s-42.667 19.103-42.667 42.667v256c0 23.564 19.103 42.667 42.667 42.667zM512 704c35.346 0 64-28.654 64-64s-28.654-64-64-64c-35.346 0-64 28.654-64 64s28.654 64 64 64z" />
<glyph unicode="&#xe928;" glyph-name="whatsapp" d="M512 959.974c68.798 0 135.54-13.372 198.394-39.77 61.484-25.714 116.568-62.856 163.768-110.054 47.198-47.312 84.226-102.396 110.054-163.766 26.628-63.54 40.112-131.082 39.778-200.682-0.35-69.254-14.062-136.338-41.034-199.424-25.942-60.914-63.084-115.54-110.284-162.282-47.086-46.742-102.054-83.312-163.196-108.798-62.514-25.942-128.912-39.198-197.366-39.198h-2.4c-79.312 0.342-158.052 19.314-228.452 54.856h-173.824c-29.028 0-52.57 23.542-52.57 52.57v173.71c-35.542 70.398-54.512 149.14-54.862 228.452-0.336 69.254 12.92 136.568 39.206 199.88 25.37 61.14 62.056 115.998 108.796 163.196s101.368 84.226 162.282 110.284c63.084 26.972 130.168 40.686 199.424 41.028zM512.114 873.12h-1.942c-113.94-0.456-220.566-45.026-300.334-125.596-79.884-80.57-123.426-187.538-122.972-301.478 0.346-68.914 17.49-137.368 49.716-197.824l5.144-9.6v-160.91h160.91l9.6-5.144c60.456-32.228 128.912-49.37 197.824-49.712h1.942c113.14 0 219.424 43.656 299.534 122.968 80.456 79.77 125.14 186.394 125.828 300.222 0.226 57.826-10.86 113.826-33.030 166.624-21.37 50.97-52.226 96.798-91.426 135.998-39.312 39.312-85.026 70.056-135.996 91.426-52.226 21.942-107.654 33.028-164.796 33.028zM333.834 685.696c8.456 0 16.8 0 24.114-0.456 7.656-0.456 18.17 2.972 28.342-21.598 3.504-8.418 8.634-20.914 14.036-34.070l6.524-15.884c8.642-21.020 16.588-40.23 18.296-43.644 3.2-6.4 5.258-13.6 1.142-22.058-24.114-48.112-49.942-46.512-37.028-68.798 48.798-83.77 97.368-112.798 171.424-149.824 12.456-6.286 19.884-5.256 27.198 3.2 7.544 8.572 31.542 36.798 40 49.484 8.342 12.8 16.8 10.744 28.342 6.4 9.768-3.48 55.7-25.782 77.148-36.438l8.908-4.476c12.456-6.058 20.914-9.256 24-14.856 3.086-5.256 3.086-30.514-7.314-60-10.4-29.6-60.57-56.342-84.912-60-40-5.942-71.312-2.972-151.312 31.542-126.51 54.742-208.908 181.824-215.308 190.282-6.17 8.456-51.312 68.454-51.312 130.396s32.572 92.454 44.112 105.14c11.544 12.456 25.142 15.656 33.598 15.656z" />
<glyph unicode="&#xe929;" glyph-name="security" d="M470.025 926.35l-299.772-122.085c-41.024-16.695-67.853-56.581-67.853-100.881v-381.67c0-87.191 56.82-165.858 153.178-237.081 64.713-47.832 140.204-87.394 213.575-117.962 26.833-11.21 57.070-11.21 83.932 0.012 73.289 30.534 148.828 70.13 213.548 117.974 96.356 71.23 153.176 149.886 153.176 237.044v381.696c0 44.3-26.829 84.187-67.861 100.884l-299.768 122.083c-26.343 10.719-55.824 10.713-82.153-0.014zM528.048 867.088l299.767-122.083c16.929-6.889 27.993-23.338 27.993-41.608v-381.696c0-62.149-45.552-125.207-127.221-185.58-59.878-44.264-131.185-81.642-200.145-110.373-11.105-4.639-23.572-4.639-34.648-0.012-69.044 28.765-140.306 66.111-200.176 110.363-81.669 60.366-127.219 123.43-127.219 185.614v381.67c0 18.27 11.064 34.719 27.985 41.605l299.788 122.091c10.858 4.424 23.015 4.426 33.875 0.007zM341.2 347.773c3.222 3.665 8.152 5.347 12.937 4.412l83.718-16.34c4.801-0.935 8.73-4.362 10.298-8.988 1.566-4.622 0.537-9.732-2.693-13.402l-9.913-11.263 2.846-1.515c41.241-21.319 89.341-25.308 134.491-10.715l4.505 1.521c91.557 32.228 140.106 132.593 108.225 223.7-2.823 8.086-1.099 17.075 4.516 23.58 5.61 6.499 14.255 9.539 22.685 7.973 8.443-1.569 15.389-7.519 18.212-15.603 31.404-89.574 2.369-189.432-72.334-248.819-74.699-59.384-178.685-65.281-259.107-14.685l3.624-2.237-14.189-16.152c-3.209-3.671-8.147-5.367-12.944-4.433-4.81 0.936-8.744 4.373-10.305 9.005l-27.263 80.565c-1.565 4.62-0.536 9.727 2.692 13.398zM365.323 639.3c74.693 59.377 178.667 65.279 259.086 14.697l-3.65 2.242 14.226 16.158c2.869 3.263 7.090 4.955 11.358 4.628l1.6-0.218c4.805-0.946 8.729-4.387 10.28-9.010l27.276-80.536c1.565-4.62 0.536-9.727-2.692-13.398-3.222-3.665-8.152-5.347-12.937-4.412l-83.727 16.358c-4.801 0.935-8.73 4.362-10.298 8.988-1.566 4.622-0.537 9.732 2.696 13.406l9.905 11.247-2.831 1.51c-41.241 21.319-89.341 25.308-134.489 10.716l-4.505-1.521c-91.547-32.251-140.096-132.613-108.226-223.701 2.823-8.086 1.099-17.075-4.516-23.58-5.61-6.499-14.255-9.539-22.685-7.973-8.443 1.569-15.389 7.519-18.212 15.604-31.39 89.57-2.353 189.414 72.344 248.795z" />
<glyph unicode="&#xe92a;" glyph-name="long-arrow-left" d="M82.382 344.279l212.503-212.541c13.436-13.436 35.219-13.436 48.656 0s13.436 35.219 0 48.656l-163.863 163.885h-97.296zM989.596 413.088c19.001 0 34.405 15.404 34.405 34.405s-15.404 34.405-34.405 34.405h-879.76l233.704 233.707c13.436 13.436 13.436 35.219 0 48.656s-35.219 13.436-48.656 0l-279.769-279.769c-19.652-19.652-20.141-51.211-1.468-71.455l975.947 0.053z" />
<glyph unicode="&#xe92b;" glyph-name="long-arrow-right" d="M941.62 344.28l-212.503-212.541c-13.436-13.436-35.219-13.436-48.656 0s-13.436 35.219 0 48.656l163.863 163.885h97.296zM34.405 413.089c-19.001 0-34.405 15.404-34.405 34.405s15.404 34.405 34.405 34.405h879.759l-233.704 233.707c-13.436 13.436-13.436 35.219 0 48.656s35.219 13.436 48.656 0l279.769-279.769c19.652-19.652 20.141-51.211 1.468-71.455l-975.947 0.053z" />
<glyph unicode="&#xe92c;" glyph-name="menu1" d="M34.133 780.8h955.733c18.851 0 34.133-15.282 34.133-34.133s-15.282-34.133-34.133-34.133h-955.733c-18.851 0-34.133 15.282-34.133 34.133s15.282 34.133 34.133 34.133zM34.133 482.133h699.733c18.851 0 34.133-15.282 34.133-34.133s-15.282-34.133-34.133-34.133h-699.733c-18.851 0-34.133 15.282-34.133 34.133s15.282 34.133 34.133 34.133zM34.133 183.467h955.733c18.851 0 34.133-15.282 34.133-34.133s-15.282-34.133-34.133-34.133h-955.733c-18.851 0-34.133 15.282-34.133 34.133s15.282 34.133 34.133 34.133z" />
<glyph unicode="&#xe92d;" glyph-name="less" d="M85.333 482.133h853.333v-68.267h-853.333v68.267z" />
<glyph unicode="&#xe92e;" glyph-name="more" d="M546.133 874.667v-392.491l392.533-0.043v-68.267l-392.533 0.043v-392.576h-68.267v392.576l-392.533-0.043v68.267l392.533 0.043v392.491h68.267z" />
<glyph unicode="&#xe92f;" glyph-name="search1" d="M478.407 531.924l502.928-502.962-50.294-50.294-502.928 502.962 50.294 50.294zM146.824 813.169c138.879 138.886 364.043 138.886 502.922 0 109.163-109.695 134.557-277.531 62.732-414.613l-52.49 52.493c45.124 106.58 21.192 229.875-60.527 311.831-53.354 53.361-125.72 83.338-201.176 83.338s-147.822-29.978-201.176-83.338c-110.875-111.21-110.875-291.169 0-402.379 81.964-81.755 205.289-105.69 311.881-60.531l52.419-52.493c-137.073-71.83-304.898-46.434-414.585 62.736-138.876 138.888-138.876 364.068 0 502.956z" />
<glyph unicode="&#xe930;" glyph-name="close1" d="M95.655 80.009l784.417 784.417 48.272-48.272-784.417-784.417-48.272 48.272zM620.181 388.173l308.164-308.164-48.272-48.272-308.164 308.164zM403.803 508.008l-308.147 308.147 48.272 48.272 308.147-308.147z" />
<glyph unicode="&#xe931;" glyph-name="language1" d="M897.859 336.902c-36.22-125.007-130.513-224.867-253.239-268.19 59.217 101.894 91.026 217.393 92.325 335.238h242.176c1.341 14.549 2.213 29.166 2.213 44.050 0 259.206-210.128 469.333-469.333 469.333-224.418-0.057-417.395-158.978-460.483-379.221h69.327c31.019 134.296 128.548 243.409 258.536 289.243-62.276-108.34-94.344-231.404-92.861-356.358h-242.712c0-7.643-1.14-15.22-1.14-22.997 0-259.206 210.128-469.333 469.333-469.333 216.215 0.21 404.309 148.105 455.522 358.168l-69.662 0.067zM913.146 470.997h-175.665c1.483 124.954-30.585 248.018-92.861 356.358 153.199-53.704 259.105-194.226 268.526-356.291v-0.067zM512 850.219c62.69 0 152.064-147.505 157.897-379.221h-315.794c5.833 231.918 95.208 379.422 157.897 379.422v-0.201zM112.262 403.95h174.793c1.299-117.845 33.107-233.344 92.325-335.238-146.019 51.23-249.821 181.529-267.118 335.305v-0.067zM512 45.848c-60.745 0-146.231 138.722-156.891 358.101h313.783c-10.594-219.313-96.146-358.101-156.891-358.101v0z" />
<glyph unicode="&#xe932;" glyph-name="download1" d="M540.444 251.748l273.254 273.254c11.108 11.108 29.118 11.108 40.227 0s11.108-29.118 0-40.227l-311.756-311.756c-16.662-16.662-43.677-16.662-60.34 0l-311.756 311.756c-11.108 11.108-11.108 29.118 0 40.227s29.118 11.108 40.227 0l273.254-273.254v622.919c0 15.709 12.735 28.444 28.444 28.444s28.444-12.735 28.444-28.444v-622.919zM967.111 248.889c0 15.709 12.735 28.444 28.444 28.444s28.444-12.735 28.444-28.444v-170.667c0-47.128-38.205-85.333-85.333-85.333h-853.333c-47.128 0-85.333 38.205-85.333 85.333v170.667c0 15.709 12.735 28.444 28.444 28.444s28.444-12.735 28.444-28.444v-170.667c0-15.709 12.735-28.444 28.444-28.444h853.333c15.709 0 28.444 12.735 28.444 28.444v170.667z" />
<glyph unicode="&#xe933;" glyph-name="contact1" d="M512.039 883.2c71.39-0.069 141.472-19.237 203.039-55.529l1.621-1.040c50.366-35.040 93.083-80.032 125.847-132.729 35.094-59.457 53.561-127.325 53.454-196.405v-165.12l-25.625 0.001 0.003-0.8h-175.375v-246.871h149.747l0.008 135.096h51.239v-186.345h-252.234v349.359l200.986 0.005 0.011 114.715c0.093 59.934-15.918 118.778-46.033 169.813-27.408 44.072-63.062 82.349-104.959 112.723l-5.64 4.004-5.067 2.909c-50.223 28.283-106.604 43.704-164.138 44.9l-6.909 0.075c-88.235 0-172.86-35.216-235.263-97.915-62.428-62.725-97.503-147.816-97.496-236.548l-0.003-114.611 200.983-0.008v-349.466h-252.234v349.466l0.013 0.008 0.002 114.609c-0.009 102.27 40.425 200.361 112.418 272.696 72.013 72.355 169.705 113.009 271.606 113.009zM328.986 331.639l-149.735 0.009v-246.989l149.735-0.007v246.986z" />
<glyph unicode="&#xe934;" glyph-name="report1" d="M851.021 744.183v-63.778h0.079v-107.060c0.758-126.082-38.91-249.113-113.227-351.182-57.867-80.246-138.871-141.062-232.257-174.375-93.4 33.296-174.413 94.116-232.273 174.375-74.314 102.075-114.006 225.097-113.307 351.182v107.060l345.611 164.711 235.555-112.271v63.683l-235.587 112.271-403.216-192.187v-143.284c-0.654-138.386 42.997-273.378 124.618-385.369 66.729-92.496 161.037-161.685 269.514-197.729l9.021-3.032 9.116 3.032c108.44 36.115 202.728 105.289 269.514 197.729 81.647 111.984 125.3 246.989 124.618 385.384v143.268l-57.779 27.57zM723.367 595.61l-235.904-264.208-195.651 149 35.021 45.54 153.131-116.55 200.375 224.368z" />
<glyph unicode="&#xe935;" glyph-name="warranty1" d="M75.979 725.107l206.388-206.744 158.579 158.851-206.378 206.754 38.306 11.616c100.501 30.493 220.563 11.746 325.607-93.479 58.283-58.383 83.334-131.275 83.48-210.319 0.051-27.366-2.944-53.559-7.98-77.753-1.222-5.874-2.456-11.148-3.637-15.77l-0.373-1.377 183.538-183.831-33.906-33.964-204.263 204.614 5.543 15.934c0.356 1.129 0.825 2.683 1.384 4.638 1.616 5.662 3.246 12.22 4.773 19.559 4.393 21.107 7.015 44.035 6.97 67.861-0.125 67.218-20.981 127.906-69.436 176.444-74.572 74.7-156.189 98.934-229.883 91.2l-6.924-0.825 181.004-181.293-226.401-226.79-180.982 181.292-0.242-1.89c-9.159-73.494 13.201-155.28 85.563-230.309l4.898-4.992c48.445-48.528 109.029-69.417 176.139-69.542 23.788-0.044 46.68 2.581 67.755 6.981 5.863 1.224 11.226 2.514 16.031 3.809l3.498 0.972c3.255 0.932 5.396 1.617 6.312 1.939l14.227 4.998 287.904-288.421 188.221 189.785 33.906-33.964-85.865-86.469-136.098-137.422-301.25 301.745-1.358-0.351c-2.307-0.592-4.777-1.197-7.403-1.806l-8.341-1.837c-24.156-5.043-50.306-8.042-77.627-7.992-78.915 0.147-151.682 25.236-209.956 83.61-105.024 105.204-123.743 225.492-93.319 326.163l11.597 38.375z" />
<glyph unicode="&#xe936;" glyph-name="wholesale1" d="M72.004 931.61l98.747-78.198 0.003-660.906c53.45-4.275 96.557-45.364 103.734-97.92l597.031 0.006 98.81-77.135-30.828-39.902-85.206 66.517-584.249-0.011c-14.797-45.752-57.82-78.805-108.519-78.805-30.191 0-59.158 11.954-80.539 33.254-21.424 21.344-33.473 50.323-33.473 80.555 0 48.442 30.3 89.767 72.966 106.209l-0.007 643.621-79.575 63.030 31.103 39.686zM161.528 142.351c-35.259 0-63.751-28.385-63.751-63.287 0-16.737 6.68-32.803 18.593-44.671 11.956-11.912 28.203-18.616 45.158-18.616 35.259 0 63.751 28.385 63.751 63.287s-28.492 63.287-63.751 63.287zM723.359 833.896v-282.036l132.933-0.011v-183.563h-50.261l-0.015 133.043-460.231-0.067 0.006-241.707h460.225l0.015 3.814h50.261v-54.345h-560.76v342.825l0.034 282.047h427.794zM673.098 783.375h-327.274l-0.001-231.516h327.27l0.005 231.516z" />
<glyph unicode="&#xe937;" glyph-name="faq-1" d="M93.867 900.285l591.646-0.438 123.242-156.265v-201.99h-51.2l-0.017 184.269-96.87 122.829-515.601 0.375v-795.017h318.157v-51.2h-369.357v897.435zM767.11 430.73c65.893-46.999 96.988-129.062 78.788-207.926-1.152-4.989-2.486-9.935-3.941-14.644l-41.044 45.575c7.105 75.583-43.133 144.646-117.232 161.159s-148.908-24.684-174.568-96.131c-25.66-71.448 5.845-150.827 73.518-185.231s150.372-13.085 192.978 49.748l10.874-12.048 0.429 0.407 122.351-126.003-36.732-35.668-97.774 100.665c-47.013-36.907-108.93-51.498-168.856-37.738-78.899 18.145-139.033 82.068-152.388 161.901s22.699 159.848 91.348 202.731c68.641 42.886 156.356 40.203 222.249-6.796zM381.44 345.958v-51.2h-141.397v51.2h141.397zM494.455 543.829v-51.2h-254.413v51.2h254.413zM604.092 741.7v-51.2h-364.032v51.2h364.032z" />
<glyph unicode="&#xe938;" glyph-name="faq-2" d="M84.204 928.835l97.624-77.66-0.009-653.702c25.976-2.286 50.951-13.513 70.176-32.739 17.73-17.73 28.658-40.349 32.043-64.134l588.244-0.009 97.747-76.525-31.562-40.315-83.854 65.64-575.071 0.006c-0.892-2.721-1.892-5.422-3-8.097-17.535-42.322-58.84-69.913-104.646-69.904-62.539 0-113.237 50.698-113.237 113.237-0.009 45.806 27.581 87.111 69.904 104.646l2.053 0.824-0.003 636.401-78.282 62.261 31.874 40.068zM148.16 141.98c-23.189-9.608-38.307-32.24-38.302-57.341 0-34.267 27.775-62.042 62.042-62.042 25.101-0.005 47.733 15.112 57.341 38.302s4.3 49.883-13.449 67.632c-17.749 17.749-44.443 23.057-67.632 13.449zM773.53 663.484v-220.16h-51.2l0.017 168.96h-402.688v-278.494h104.107v-65.536l111.637 65.536h239.066v-51.2h-225.161l-176.742-103.764v103.764h-104.107v380.894h505.071zM886.358 818.142v-334.899h-51.2v283.699h-402.603v-62.003h-51.2v113.203h505.003z" />
<glyph unicode="&#xe939;" glyph-name="faq-3" d="M498.737 900.267l0.642-24.941c0.093-3.616 0.547-10.48 1.624-19.454 1.796-14.968 4.713-29.893 8.932-43.564 5.19-16.819 11.951-30.298 19.948-39.235 14.726-16.458 27.202-21.648 60.645-28.126 24.412-4.729 33.894-6.947 48.322-12.194 65.036-23.649 90.904-66.561 90.904-170.098h-51.2c0 5.933-0.070 11.56-0.217 16.9-42.938-14.785-88.079-22.746-133.979-23.539-38.612 0-64.814 5.288-101.128 17.827-3.396 1.173-15.525 5.441-18.080 6.327-31.296 10.857-53.983 16.328-87.303 19.351-43.305 3.921-86.755-2.705-126.696-19.107l0.012-4.376 0.005-2.723 0.013-8.836 0.004-3.169 0.014-13.816 0.003-3.742 0.012-20.468 0.001-148.878-0.015-56.491-0.003-8.628-0.013-40.005c-0.012-33.852-0.026-68.925-0.042-104.702-0.005-11.003-0.010-21.892-0.015-32.635l-0.016-31.759c-0.008-15.629-0.016-30.857-0.024-45.578l-0.009-15.914-0.016-2.425h579.823v460.51h51.2v-511.71h-682.238l0.015 25.615 0.016 28.039 0.001 1.896 0.016 28.903 0.011 20.333c0.002 3.432 0.004 6.885 0.005 10.358l0.016 31.758c0.005 10.743 0.010 21.631 0.015 32.633 0.016 35.776 0.030 70.846 0.042 104.696l0.013 40.002 0.002 7.19 0.016 83.132v96.561l-0.016 67.656-0.002 3.517-0.015 25.167-0.002 2.031-0.015 10.214-0.002 0.487-0.004 0.42-0.097 2.222-1.59 3.832 1.604-2.893-0.014-0.939c0 39.685 15.966 69.619 52.277 115.281 19.165 24.101 24.995 31.451 29.010 37.634l1.162 1.835c1.13 1.831 2.201 3.698 3.523 6.020 5.343 9.384 9.702 22.111 12.925 37.267 2.866 13.478 4.696 28.13 5.653 43.009 0.634 9.858 0.803 18.263 0.72 24.334-0.004 0.232-0.006 0.386-0.008 0.49l-0.004 0.231-0.683 26.266h234.298zM729.753 562.654v-448.239h-51.2v448.229l51.2 0.010zM417.023 229.239v-51.2h-125.389v51.2h125.389zM471.841 348.706v-51.2h-180.19v51.2h180.19zM539.477 468.173v-51.2h-247.825v51.2h247.825zM450.167 849.77l0.102-0.703h-134.571l-0.19-3.409c-0.884-13.747-2.423-27.403-4.761-40.583l-1.906-9.79c-4.232-19.898-10.224-37.393-18.511-51.949-4.771-8.38-10.589-16.862-18.16-26.801-2.897-3.803-5.958-7.705-9.955-12.716-0.474-0.595-2.106-2.633-3.949-4.937l-2.804-3.506c-1.363-1.704-2.578-3.226-3.247-4.066-17.772-22.349-29.076-39.188-35.249-54.399 40.321 12.752 82.97 17.45 125.503 13.599 37.957-3.443 64.535-9.853 99.463-21.97 2.712-0.941 14.794-5.193 18.009-6.303 31.346-10.823 52.156-15.023 83.974-15.027 43.979 0.762 87.433 9.101 128.468 24.587-7.698 29.773-23.349 42.77-51.030 52.836-11.036 4.013-18.814 5.833-40.561 10.046-43.492 8.424-65.022 17.382-89.065 44.252-13.602 15.202-23.532 34.996-30.716 58.279-5.219 16.914-8.707 34.758-10.843 52.559z" />
<glyph unicode="&#xe93a;" glyph-name="subscribe1" horiz-adv-x="1422" d="M1282.462 960c76.185 0 139.676-59.813 139.676-131.56v-380.407c-0.882-20.231-17.684-36.182-38.11-36.182s-37.228 15.951-38.11 36.182v380.407c-0.064 3.88-0.502 7.714-1.293 11.457l-610.701-432.554c-7.34-2.696-15.044-4.293-22.859-4.738-8.153 0.166-16.087 2.649-22.859 7.154l-610.241 432.284c-1.103-4.417-1.711-8.978-1.788-13.602v-760.815c0.275-16.323 7.156-31.853 19.095-43.097s27.937-17.26 44.395-16.695h571.397c13.372 0.671 26.027-6.020 32.916-17.401s6.889-25.6 0-36.981c-6.889-11.381-19.545-18.071-32.916-17.401h-571.397c-76.185 0-139.669 59.813-139.669 131.574v760.815c0 71.747 63.484 131.56 139.669 131.56h1142.794zM1241.823 314.065l162.905-153.456c4.962-2.973 9.221-7.134 12.317-12.242 6.903-11.389 6.903-25.624 0-37.013-4.106-6.773-10.254-11.881-17.379-14.763l-157.843-148.548c-5.17-5.807-12.071-9.743-19.621-11.295l-5.731-0.695-0.036-0.014c-10.175-0.506-20.19 2.927-27.895 9.59-7.269 6.359-11.433 15.507-11.433 25.119s4.164 18.759 11.433 25.119l104.089 98.116-378.397-0.001c-13.384-0.697-26.064 5.986-32.967 17.374s-6.903 25.624 0 37.013c6.903 11.389 19.583 18.071 32.967 17.374l378.397 0.033-104.125 98.061c-7.269 6.358-11.433 15.505-11.433 25.115s4.164 18.757 11.433 25.115c14.83 14.339 38.489 14.339 53.319 0zM139.378 888.263l571.688-406.751 574.717 406.724c-1.113 0.021-2.23 0.013-3.348-0.026l-1143.056 0.052z" />
<glyph unicode="&#xe93b;" glyph-name="lostmary" horiz-adv-x="4096" d="M3515.895 403.572c49.758 21.616 86.117 71.174 86.117 131.342 0 75.508-60.117 143.345-143.146 143.345h-262.534v-460.468h106.139v173.927h90.898l126.262-173.927h131.292l-135.028 185.731zM3302.471 579.541h143.096c24.605 0 44.577-19.973 44.577-44.577s-19.973-44.577-44.577-44.577h-143.096v89.155zM3.238 217.791h-3.238v460.418h105.89v-357.317h256.059l-48.014-103.101h-310.698zM1551.297 217.791h105.89v357.317h172.134v103.101h-425.603l-47.914-103.101h195.493v-357.317zM1216.493 320.145h-241.266l-47.715-102.304h289.032c79.094 0 143.246 64.152 143.246 143.246s-64.152 143.246-143.246 143.246h-150.916c-19.774 0-35.811 16.038-35.811 35.811s16.038 35.811 35.811 35.811h220.148l47.616 102.254h-267.814c-76.305 0-138.116-61.861-138.116-138.116s61.861-138.116 138.116-138.116h150.916c22.612 0 40.942-18.329 40.942-40.942s-18.329-40.942-40.942-40.942zM2827.459 678.209l-223.635-460.418h122.775l143.246 294.909 90.948-192.555h-132.886l47.715-102.354h260.243l-223.635 460.418h-84.772zM645.851 680.55h-26.099c-128.403 0-232.55-104.097-232.55-232.55v0c0-128.403 104.097-232.55 232.55-232.55h26.099c128.403 0 232.55 104.097 232.55 232.55v0c0 128.403-104.097 232.55-232.55 232.55zM775.35 448c0-71.473-57.976-129.449-129.449-129.449h-26.199c-71.473 0-129.449 57.976-129.449 129.449v0c0 71.473 57.976 129.449 129.449 129.449h26.199c71.473 0 129.449-57.976 129.449-129.449v0zM4096 678.209h-131.093l-111.369-153.257-111.319 153.257h-131.292l190.463-262.136v-198.283h106.139v198.233l188.47 262.185zM2297.859 459.854l-130.993 218.355h-114.557v-460.418h98.967v297.001l116.449-193.701 60.366 0.299 116.3 193.402v-297.001h99.017v460.418h-114.557l-130.993-218.355z" />
<glyph unicode="&#xe93c;" glyph-name="help1" d="M914.688 206.799c-10.005-16.67-31.63-22.073-48.3-12.068s-22.073 31.63-12.068 48.3c37.165 61.901 56.738 132.768 56.613 204.969 0 220.328-178.605 398.933-398.933 398.933s-398.933-178.605-398.933-398.933c0-220.328 178.605-398.933 398.933-398.933 72.191-0.128 143.049 19.438 204.946 56.59 10.784 6.47 24.2 6.696 35.195 0.592s17.899-17.61 18.11-30.184c0.212-12.574-6.301-24.306-17.085-30.776-72.838-43.717-156.216-66.75-241.167-66.622-259.201 0-469.333 210.133-469.333 469.333s210.132 469.333 469.333 469.333c259.201 0 469.333-210.132 469.333-469.333 0-86.123-23.267-168.925-66.645-241.202zM664.533 530.134c0-72.488-51.392-132.939-120.114-148.591v-39.142c0-19.44-15.76-35.2-35.2-35.2s-35.2 15.76-35.2 35.2v70.4c0 19.44 15.76 35.2 35.2 35.2 47.074 0 84.914 36.96 84.914 82.134s-37.84 82.133-84.914 82.133c-29.451 0-56.191-14.573-71.691-38.086-3.988-6.044-7.142-12.6-9.375-19.489-6.227-18.163-25.86-27.984-44.129-22.076s-28.433 25.367-22.845 43.736c4.177 12.93 10.091 25.227 17.577 36.561 28.442 43.179 77.205 69.755 130.475 69.755 85.571 0 155.302-68.1 155.302-152.533zM512 201.601c-19.44 0-35.2 15.76-35.2 35.2s15.76 35.2 35.2 35.2c19.44 0 35.2-15.76 35.2-35.2s-15.76-35.2-35.2-35.2z" />
<glyph unicode="&#xe93d;" glyph-name="play1" d="M42.667 448.002c0 258.837 210.544 469.332 469.333 469.332s469.331-210.495 469.331-469.332c0-258.79-210.542-469.333-469.331-469.333-64.835-0.153-128.987 13.244-188.343 39.331-11.109 4.879-18.77 15.314-20.099 27.374s3.878 23.913 13.658 31.093c9.78 7.181 22.648 8.598 33.756 3.719 50.753-22.282 105.598-33.728 161.028-33.604 221.29 0 401.372 180.13 401.372 401.42 0 221.337-180.082 401.373-401.372 401.373-221.337 0-401.372-180.036-401.372-401.373-0.258-85.932 27.305-169.64 78.566-238.608 10.412-15.094 6.97-35.727-7.778-46.624s-35.482-8.126-46.852 6.261c-59.942 80.633-92.18 178.499-91.897 278.971zM456.62 261.678h1.69c13.751 0.375 42.193 12.203 42.474 12.343 47.778 20.134 142.348 82.274 180.552 123.387l2.3 2.441c4.693 4.975 11.686 12.672 13.329 14.925 14.957 20.472 14.419 48.407-1.314 68.288-3.607 4.143-7.316 8.196-11.123 12.156l-3.708 3.989c-37.171 39.659-133.947 104.943-184.776 124.655-7.744 3.051-26.893 10.185-37.359 10.466-23.412 0.786-44.881-12.954-53.973-34.543-3.52-8.26-8.213-32.853-8.26-33.182-4.928-27.221-7.744-70.4-7.653-118.553-0.091-45.525 2.443-87.296 6.902-114.376 0.047-0.282 5.35-30.647 10.888-41.395 9.725-18.67 28.98-30.429 50.031-30.554v-0.047zM463.284 554.4c0.375 2.159 1.033 5.35 1.737 8.589l6.242-2.347c40.691-15.816 130.38-76.266 159.807-107.759l3.942-4.224c0.080-0.076 0.158-0.154 0.235-0.235l0.094-0.094c0.061-0.049 0.123-0.096 0.188-0.141 0.044-0.064 0.091-0.127 0.141-0.188-0.493-0.461-0.963-0.947-1.408-1.455-0.822-1.018-1.733-1.96-2.722-2.816-28.488-30.788-113.625-88.751-157.085-107.055l-4.13-1.643c-1.742-0.659-3.478-1.332-5.21-2.018-0.895 3.872-1.678 7.769-2.347 11.686-3.849 23.232-6.101 61.905-6.055 103.347-0.046 42.991 2.488 83.776 6.571 106.351v0z" />
<glyph unicode="&#xe93e;" glyph-name="linktr" d="M101.704 610.647h248.083l-176.365 168.132 97.587 100.331 168.134-172.836v245.732h145.793v-245.732l168.128 172.444 97.51-99.939-176.282-167.74h248.006v-138.739h-249.421l177.464-172.44-97.28-97.984-241.024 242.207-241.030-242.207-97.587 97.587 177.536 172.446h-249.256v138.739zM438.747 273.209h145.798v-329.216h-145.798v329.216z" />
<glyph unicode="&#xe93f;" glyph-name="messenger" d="M511.596 928.5c-263.080 0-476.344-198.984-476.344-444.439 0-138.99 68.379-263.092 175.459-344.584v-170.977l159.861 90.885c44.572-12.838 91.934-19.775 141.023-19.775 263.092 0 476.338 199.002 476.338 444.445 0 245.461-213.246 444.445-476.338 444.445zM559.783 333.797l-122.156 128.268-233.789-128.268 256.881 271.992 123.299-126.029 231.193 126.029z" />
<glyph unicode="&#xe940;" glyph-name="skype" d="M957.523 367.334c-0.311-1.688-0.838 1.523 0 0 4.951 26.977 7.553 54.58 7.553 82.178 0 61.195-11.977 120.557-35.649 176.45-22.84 53.983-55.512 102.463-97.166 144.088-41.59 41.631-90.106 74.297-144.065 97.131-55.869 23.643-115.237 35.625-176.426 35.625-28.84 0-57.727-2.707-85.84-8.109-0.059-0.012-0.211-0.029-0.211-0.029-38.572 20.508-81.944 31.459-125.854 31.459-71.684 0-139.078-27.914-189.762-78.615-50.678-50.684-78.604-118.084-78.604-189.762 0-45.627 11.742-90.481 33.762-130.108-4.465-25.682-6.826-51.926-6.826-78.129 0-61.207 11.982-120.563 35.654-176.461 22.805-54.006 55.488-102.451 97.108-144.082 41.654-41.625 90.1-74.344 144.117-97.119 55.875-23.689 115.26-35.678 176.45-35.678 26.637 0 53.332 2.432 79.395 7.055 40.149-22.717 85.606-34.787 132.024-34.787 71.666 0 139.032 27.861 189.721 78.586 50.695 50.654 78.598 118.067 78.598 189.745 0 45.779-11.801 90.779-33.979 130.565zM513.575 171.888c-161.045 0-233.098 79.172-233.098 138.516 0 30.428 22.471 51.768 53.438 51.768 68.924 0 51.076-98.959 179.661-98.959 65.83 0 102.176 35.742 102.176 72.317 0 22.002-10.852 46.389-54.199 57.070l-143.239 35.76c-115.365 28.928-136.295 91.295-136.295 149.918 0 121.717 114.604 167.414 222.223 167.414 99.141 0 216.006-54.791 216.006-127.811 0-31.289-27.094-49.483-58.049-49.483-58.817 0-48 81.41-166.477 81.41-58.787 0-91.354-26.625-91.354-64.717 0-38.027 46.436-50.174 86.748-59.356l106.026-23.537c116.139-25.875 145.582-93.68 145.582-157.547 0.012-98.906-75.914-172.764-229.149-172.764z" />
<glyph unicode="&#xe941;" glyph-name="snapchat" d="M517.613-1.206c-2.483 0-10.515 0-12.129 0-56.877 0-93.37 25.791-128.671 50.759-24.376 17.219-47.383 33.481-74.483 37.996-13.227 2.19-26.389 3.288-39.088 3.288-22.931 0-41.002-3.534-54.199-6.117-8.020-1.573-14.935-2.912-20.202-2.912-5.501 0-11.43 1.186-14.031 10.027-2.243 7.673-3.863 15.070-5.442 22.256-4.033 18.458-6.898 29.818-14.624 31.004-90.205 13.931-116.031 32.947-121.784 46.421-0.81 1.92-1.28 3.863-1.38 5.765-0.288 5.184 3.358 9.763 8.495 10.591 138.651 22.832 200.835 164.559 203.43 170.571 0.053 0.164 0.123 0.329 0.211 0.487 8.495 17.202 10.145 32.137 4.961 44.378-9.517 22.409-40.562 32.266-61.109 38.789-5.014 1.597-9.787 3.094-13.544 4.597-40.996 16.203-44.395 32.83-42.787 41.301 2.748 14.46 22.045 24.528 37.667 24.528 4.274 0 8.037-0.775 11.207-2.249 18.458-8.624 35.061-13.016 49.415-13.016 19.814 0 28.462 8.331 29.519 9.423-0.511 9.382-1.127 19.18-1.773 29.307-4.121 65.548-9.258 147.023 11.501 193.508 62.16 139.362 193.966 150.211 232.896 150.211 0.992 0 17.072 0.17 17.072 0.17h2.301c39 0 171.111-10.843 233.313-150.299 20.742-46.52 15.599-128.049 11.466-193.549l-0.164-2.865c-0.581-9.112-1.139-17.976-1.609-26.472 1.004-1.016 8.959-8.671 26.912-9.358h0.012c13.667 0.517 29.348 4.885 46.579 12.933 5.031 2.36 10.638 2.853 14.448 2.853 5.847 0 11.748-1.127 16.65-3.17l0.305-0.123c13.914-4.943 23.049-14.695 23.248-24.892 0.182-9.611-7.151-24.041-43.115-38.243-3.728-1.485-8.501-2.988-13.544-4.597-20.577-6.522-51.593-16.38-61.109-38.789-5.184-12.241-3.534-27.158 4.961-44.36 0.070-0.176 0.153-0.329 0.229-0.505 2.577-6.012 64.691-147.698 203.418-170.559 5.119-0.84 8.789-5.419 8.507-10.591-0.117-1.937-0.605-3.892-1.427-5.8-5.73-13.374-31.52-32.366-121.737-46.291-7.386-1.139-10.25-10.749-14.642-30.898-1.603-7.321-3.217-14.524-5.442-22.098-1.926-6.575-6.018-9.646-12.922-9.646h-1.11c-4.785 0-11.571 0.869-20.19 2.56-15.276 2.982-32.401 5.724-54.199 5.724-12.728 0-25.89-1.098-39.129-3.288-27.059-4.509-50.049-20.736-74.383-37.937-35.354-25.027-71.853-50.824-128.753-50.824z" />
</font>
</defs>
</svg>
